H.265-Videos werden abgelehnt - DTube

Diese Seite verwendet Cookies. Durch die Nutzung unserer Seite erklären Sie sich damit einverstanden, dass wir Cookies setzen. Weitere Informationen

Achtung! Am 01.01.2019 werden inaktive Benutzerkonten gelöscht. Mehr Informationen findest du hier!

Bei Problemen melde dich bitte schnellstmöglich über unser Kontaktformular!

  • H.265-Videos werden abgelehnt - DTube

    Anzeige
    Weiss jemand warum diese h265 Videos von Dtube abgelehnt werden?

    Spoiler anzeigen

    General
    Unique ID : 238385427425166267820785174603634697782 (0xB3575D011F305B3481655CCE037DE636)
    Complete name : H:\Alte Dateien\Tutorials usw\Fumefx Smoke Color Tutorial 3ds max deutsch.mkv
    Format : Matroska
    Format version : Version 4 / Version 2
    File size : 75.9 MiB
    Duration : 5 min 35 s
    Overall bit rate : 1 897 kb/s
    Encoded date : UTC 2017-06-11 17:43:28
    Writing application : mkvmerge v12.0.0 ('Trust / Lust') 64bit
    Writing library : libebml v1.3.4 + libmatroska v1.4.5

    Video
    ID : 1
    Format : AVC
    Format/Info : Advanced Video Codec
    Format profile : High 4:4:4 Predictive@L5
    Format settings : CABAC / 5 Ref Frames
    Format settings, CABAC : Yes
    Format settings, RefFrames : 5 frames
    Codec ID : V_MPEG4/ISO/AVC
    Duration : 5 min 35 s
    Bit rate : 1 694 kb/s
    Width : 2 048 pixels
    Height : 1 152 pixels
    Display aspect ratio : 16:9
    Frame rate mode : Constant
    Frame rate : 60.000 FPS
    Chroma subsampling : 4:4:4
    Bit depth : 10 bits
    Scan type : Progressive
    Bits/(Pixel*Frame) : 0.012
    Stream size : 67.8 MiB (89%)
    Writing library : x264 core 150 r2833 df79067
    Encoding settings : cabac=1 / ref=5 / deblock=1:0:0 / analyse=0x3:0x113 / me=hex / subme=8 / psy=1 / psy_rd=1.00:0.00 / mixed_ref=1 / me_range=16 / chroma_me=1 / trellis=2 / 8x8dct=1 / cqm=0 / deadzone=21,11 / fast_pskip=1 / chroma_qp_offset=4 / threads=36 / lookahead_threads=6 / sliced_threads=0 / nr=0 / decimate=1 / interlaced=0 / bluray_compat=0 / constrained_intra=0 / bframes=2 / b_pyramid=2 / b_adapt=1 / b_bias=0 / direct=3 / weightb=1 / open_gop=0 / weightp=2 / keyint=600 / keyint_min=60 / scenecut=40 / intra_refresh=0 / rc_lookahead=50 / rc=crf / mbtree=1 / crf=16.0 / qcomp=0.60 / qpmin=0 / qpmax=81 / qpstep=4 / ip_ratio=1.40 / aq=1:1.00
    Default : Yes
    Forced : No
    Color range : Full

    Audio
    ID : 2
    Format : Opus
    Codec ID : A_OPUS
    Duration : 5 min 35 s
    Bit rate : 198 kb/s
    Channel(s) : 2 channels
    Channel positions : Front: L R
    Sampling rate : 44.1 kHz
    Frame rate : 50.000 FPS (882 SPF)
    Compression mode : Lossy
    Stream size : 7.94 MiB (10%)
    Default : Yes
    Forced : No

    Liegt es echt am 10bit? Laut dieser Seite ist HEVC als Codec unterstützt.
    Mein Kanal: youtube.com/user/HEEROCKSS

    User der Du bist auf meinem Channel.
    Dein Abo komme.
    Dein Like geschehe, wie auf Youtube, so auf Google+.
    Eure täglich`Klicks gebt mir Heute. Und vergebt mir meine Versprecher, wie auch ich vergebe Euren Dislike`s.
    Und Google, führe mich nicht in Versuchung, sondern erlöse mich von Copyrights.
    Denn Youtube ist das Reich und die Kraft der Uploadigkeit, in Ewigkeit.
    Let`s Play!
  • @Game8
    Das würde mir einleuchten wenn es um das Ansehen der Videos geht, hier liegt das Problem daran, dass gesagt wird, Dtube unterstütze HEVC, das Video sich aber garnicht erst hochladen lässt.
    Mein Kanal: youtube.com/user/HEEROCKSS

    User der Du bist auf meinem Channel.
    Dein Abo komme.
    Dein Like geschehe, wie auf Youtube, so auf Google+.
    Eure täglich`Klicks gebt mir Heute. Und vergebt mir meine Versprecher, wie auch ich vergebe Euren Dislike`s.
    Und Google, führe mich nicht in Versuchung, sondern erlöse mich von Copyrights.
    Denn Youtube ist das Reich und die Kraft der Uploadigkeit, in Ewigkeit.
    Let`s Play!
  • Anzeige

    Archimondro schrieb:

    Writing application : mkvmerge v12.0.0 ('Trust / Lust') 64bit
    Würde das mal updaten. Version 12 ist enorm alt.
    Zumal in deinem Header AVC drin steht. Vllt kennt mkvmerge 12 ja nichtmal H.265.

    Mich würde es allerdings auch wenig überraschen wenn so ein kleiner Laden kein H.265 einliest. Das zu decoden ist ja schon Mehraufwand für CPU.





    Seit etlichen Monaten komplett veraltete Signatur, wie ihr sicherlich schon bemerkt habt. Habe mittlerweile mehr als 4 Projekte, weshalb die Signatur leider momentan gesprengt ist xD
    Notdürftig die Liste was aktuell läuft: Unreal | DooM 2: Project Brutality | Complex DooM (LPT) | DooM 2016 | Need For Speed III: Hot Pursuit | Dirt 4 | WRC 7