CFR beim muxen beibehalten

Diese Seite verwendet Cookies. Durch die Nutzung unserer Seite erklären Sie sich damit einverstanden, dass wir Cookies setzen. Weitere Informationen

  • CFR beim muxen beibehalten

    Anzeige
    Hallo zusammen

    Ich habe eine MKV Datei die ich gerne in MP4 ummuxen würde. Ich habe mir dazu ffmpeg runtergeladen und verwende folgenden Befehl:
    D:\Programme\ffmpeg\bin\ffmpeg.exe -i "input.mkv" -codec copy output.mp4

    Leider wird dann die CFR immer in VFR umgewandelt. Ich hab zwar noch keine Probleme damit, aber ich würde trotzdem gerne in CFR muxen. Weiss jemand was hier der einfachste Weg ist?

    Danke
    Mein Let's Play Channel

    Gute Musik gefällig? Hier gehts zu meinem Heavy Metal Channel. :evil:
  • Quellcode

    1. ffmpeg -i input.mkv -c copy -r 60 output.mp4





    Seit etlichen Monaten komplett veraltete Signatur, wie ihr sicherlich schon bemerkt habt. Habe mittlerweile mehr als 4 Projekte, weshalb die Signatur leider momentan gesprengt ist xD
    Notdürftig die Liste was aktuell läuft: Unreal | DooM 2: Project Brutality | Complex DooM (LPT) | DooM 2016 | Need For Speed III: Hot Pursuit | Dirt 4 | WRC 7
  • Es ist immer noch VFR:

    Quellcode

    1. General
    2. Complete name : D:\LP\output.mp4
    3. Format : MPEG-4
    4. Format profile : Base Media
    5. Codec ID : isom (isom/iso2/avc1/mp41)
    6. File size : 205 MiB
    7. Duration : 30 s 400 ms
    8. Overall bit rate mode : Variable
    9. Overall bit rate : 56.5 Mb/s
    10. Writing application : Lavf58.18.102
    11. Video
    12. ID : 1
    13. Format : AVC
    14. Format/Info : Advanced Video Codec
    15. Format profile : High@L5.1
    16. Format settings : CABAC / 2 Ref Frames
    17. Format settings, CABAC : Yes
    18. Format settings, RefFrames : 2 frames
    19. Format settings, GOP : M=3, N=120
    20. Codec ID : avc1
    21. Codec ID/Info : Advanced Video Coding
    22. Duration : 30 s 400 ms
    23. Bit rate mode : Variable
    24. Bit rate : 56.1 Mb/s
    25. Maximum bit rate : 120 Mb/s
    26. Width : 1 920 pixels
    27. Height : 1 080 pixels
    28. Display aspect ratio : 16:9
    29. Frame rate mode : Variable
    30. Frame rate : 60.000 FPS
    31. Minimum frame rate : 58.851 FPS
    32. Maximum frame rate : 62.439 FPS
    33. Color space : YUV
    34. Chroma subsampling : 4:2:0
    35. Bit depth : 8 bits
    36. Scan type : Progressive
    37. Bits/(Pixel*Frame) : 0.451
    38. Stream size : 204 MiB (100%)
    39. Color range : Limited
    40. Matrix coefficients : BT.709
    41. Codec configuration box : avcC
    42. Audio
    43. ID : 2
    44. Format : AAC LC
    45. Format/Info : Advanced Audio Codec Low Complexity
    46. Codec ID : mp4a-40-2
    47. Duration : 30 s 395 ms
    48. Bit rate mode : Constant
    49. Bit rate : 161 kb/s
    50. Channel(s) : 2 channels
    51. Channel layout : L R
    52. Sampling rate : 44.1 kHz
    53. Frame rate : 43.066 FPS (1024 SPF)
    54. Compression mode : Lossy
    55. Stream size : 597 KiB (0%)
    56. Title : Track1
    57. Default : Yes
    58. Alternate group : 1
    Alles anzeigen
    Zum Vergleich die Inputdatei:

    Quellcode

    1. Complete name : D:\LP\Record\input.mkv
    2. Format : Matroska
    3. Format version : Version 4
    4. File size : 205 MiB
    5. Duration : 30 s 417 ms
    6. Overall bit rate mode : Variable
    7. Overall bit rate : 56.5 Mb/s
    8. Writing application : Lavf57.84.100
    9. Writing library : Lavf57.84.100
    10. ErrorDetectionType : Per level 1
    11. Video
    12. ID : 1
    13. Format : AVC
    14. Format/Info : Advanced Video Codec
    15. Format profile : High@L5.1
    16. Format settings : CABAC / 2 Ref Frames
    17. Format settings, CABAC : Yes
    18. Format settings, RefFrames : 2 frames
    19. Codec ID : V_MPEG4/ISO/AVC
    20. Duration : 30 s 417 ms
    21. Bit rate mode : Variable
    22. Maximum bit rate : 120 Mb/s
    23. Width : 1 920 pixels
    24. Height : 1 080 pixels
    25. Display aspect ratio : 16:9
    26. Frame rate mode : Constant
    27. Frame rate : 60.000 FPS
    28. Color space : YUV
    29. Chroma subsampling : 4:2:0
    30. Bit depth : 8 bits
    31. Scan type : Progressive
    32. Default : Yes
    33. Forced : No
    34. Color range : Limited
    35. Matrix coefficients : BT.709
    36. Audio
    37. ID : 2
    38. Format : AAC LC
    39. Format/Info : Advanced Audio Codec Low Complexity
    40. Codec ID : A_AAC-2
    41. Duration : 30 s 372 ms
    42. Channel(s) : 2 channels
    43. Channel layout : L R
    44. Sampling rate : 44.1 kHz
    45. Frame rate : 43.066 FPS (1024 SPF)
    46. Compression mode : Lossy
    47. Title : Track1
    48. Default : Yes
    49. Forced : No
    Alles anzeigen
    Mein Let's Play Channel

    Gute Musik gefällig? Hier gehts zu meinem Heavy Metal Channel. :evil: